Skip to main content

Neil Halstead Live at Other Music on 2002-04-24




Neil Halstead
April 24, 2002
Other Music
New York City NY

*** THIS IS A 16-BIT FILESET INTENDED FOR AUDIO CD ***

SOURCE: DPA 4061 > Sony SBM-1 > Sony TCD-D8 > ??? > audio CDs received in trade
PROCESSING: Sony Optiarc 7240S DVD-RW > Exact Audio Copy V1.0 beta 3 (logs included) > flac 1.2.1b

DISK ONE

01
02
03
04
05
06
07
08


Collection NeilHalstead
Band/Artist Neil Halstead
Venue Other Music
Location New York City NY

Source DPA 4061 > Sony SBM-1 > Sony TCD-D8 > ??? > audio CDs received in trade
Lineage Sony Optiarc 7240S DVD-RW > Exact Audio Copy V1.0 beta 3 (logs included) > flac 1.2.1b

Notes

length expanded size cdr WAVE problems fmt ratio filename
5:34.45 59023484 B --- -- ---xx flac 0.4453 neilhalstead2002-04-24_dpa4061_t01.flac
10:18.01 109017596 B --- -- ---xx flac 0.4509 neilhalstead2002-04-24_dpa4061_t02.flac
4:31.63 47952620 B --- -- ---xx flac 0.4626 neilhalstead2002-04-24_dpa4061_t03.flac
4:55.51 52157996 B --- -- ---xx flac 0.4186 neilhalstead2002-04-24_dpa4061_t04.flac
4:23.45 46499084 B --- -- ---xx flac 0.4724 neilhalstead2002-04-24_dpa4061_t05.flac
4:19.67 45845228 B --- -- ---xx flac 0.4496 neilhalstead2002-04-24_dpa4061_t06.flac
3:16.27 34637948 B --- -- ---xx flac 0.4409 neilhalstead2002-04-24_dpa4061_t07.flac
5:05.29 53870252 B --- -- ---xx flac 0.4444 neilhalstead2002-04-24_dpa4061_t08.flac
42:25.28 449004208 B 0.4482 (8 files)

Reviews

Reviewer: charliehuang2815 - - June 29, 2013
Subject: Tracklist
01 Driving With Bert
02 Hi-Low & In-between / Keep It All Hid
03 Sarah
04 See You On Rooftops
05 Sleeping On Roads
06 Trying To Reach You
07 High Hopes
08 Ohio
PEOPLE ALSO FOUND
Neil Halstead
by Neil Halstead
135
0
1
( 1 reviews )
Source: DSBD > Sony TCD-D8 > ??? > audio CDs received in trade
Neil Halstead
by Neil Halstead
137
0
1
( 1 reviews )
Source: DSBD > Sony TCD-D8 > ??? > audio CDs received in trade
Neil Halstead
by Neil Halstead
113
1
1
( 1 reviews )
Source: DPA 4061 > Sony SBM-1 > Sony TCD-D8 > ??? > audio CDs received in trade
Umphreys McGee
by Umphreys McGee
672
1
0
Source: studio projects LSDII (mid/side) > busman t-mod edirol r4 (24/96)
The Lee Boys
by The Lee Boys
180
2
0
Source: dpa 4061 (jecklin) > soundpro batt box > edirol r1 (24/44.1)
Benevento/Russo
by Benevento/Russo
193
0
0
Source: studio projects LSD2 (card, XY) > busman t-mod edirol r4 (24/96)
The Lee Boys
by The Lee Boys
66
1
0
Source: dpa 4061 > batt box > edirol r1 (24/44.1)
The Brakes
by The Brakes
603
1
1
( 1 reviews )
Source: mbho 603a/ka100dk (jecklin) > mp2 > tmod edirol r4
Emmitt Nershi Band
702
1
0
Source: studio projects LSD2 (blumlein) > busman t-mod edirol r4 (24/96)
The Lee Boys
by The Lee Boys
119
2
0
Source: mbho 603a/ka100dk (omni, jecklin) > mp2 > busman t-mod edirol r4 (24/96)